<?xml version="1.0" standalone="no"?>
<!DOCTYPE svg PUBLIC "-//W3C//DTD SVG 1.1//EN" "http://www.w3.org/Graphics/SVG/1.1/DTD/svg11.dtd" >
<svg xmlns="http://www.w3.org/2000/svg">
<metadata>
<json>
<![CDATA[
{
	"fontFamily": "hustle",
	"majorVersion": 1,
	"minorVersion": 0,
	"version": "Version 1.0",
	"fontId": "hustle",
	"psName": "hustle",
	"subFamily": "Regular",
	"fullName": "hustle",
	"description": "Font generated by IcoMoon."
}
]]>
</json>
</metadata>
<defs>
<font id="hustle" horiz-adv-x="1024">
<font-face units-per-em="1024" ascent="960" descent="-64" />
<missing-glyph horiz-adv-x="1024" />
<glyph unicode="&#x20;" horiz-adv-x="512" d="" />
<glyph unicode="&#xe900;" glyph-name="hustle" data-tags="hustle" horiz-adv-x="656" d="M646.129 316.278c1.724-7.782 3.281-15.879 4.632-24.289 3.529-21.975 5.649-46.092 5.649-72.321 0-156.528-135.677-283.9-260.157-283.9s-243.435 52.126-296.947 156.478c-53.512 104.352-160.537 313.056-53.512 313.056s137.916-213.309 257.189-213.309c119.273 0 128.106 39.859 130.821 100.935s-13.423 132.456-120.448 132.456c-107.025 0-175.882-57.296-214.049-20.082-53.512 52.176 0 104.352 0 104.352s51.825 50.53 206.474 52.137l-66.089 85.545c0 0-125.8 117.172-88.699 181.432 21.673 37.539 78.117 2.535 151.366-60.958-22.921 41.937-70.086 141.282-28.418 182.95 53.512 53.512 151.284-129.286 262.876-306.904 67.705-107.763 96.856-240.13 109.314-327.578z" />
<glyph unicode="&#xe901;" glyph-name="optin" data-tags="optin" horiz-adv-x="1280" d="M1049.6 729.6h76.918c14.073 0 25.482-11.363 25.482-25.6 0-14.138-11.665-25.6-25.482-25.6h-76.918v-76.918c0-14.073-11.363-25.482-25.6-25.482-14.138 0-25.6 11.665-25.6 25.482v76.918h-76.918c-14.073 0-25.482 11.363-25.482 25.6 0 14.138 11.665 25.6 25.482 25.6h76.918v76.918c0 14.073 11.363 25.482 25.6 25.482 14.138 0 25.6-11.665 25.6-25.482v-76.918zM716.8 704c0-28.957 4.007-56.979 11.496-83.541h-645.206c151.297-114.713 302.594-229.426 453.891-345.386 91.025 69.765 182.050 139.079 273.345 208.212 16.619-16.092 35.050-30.324 54.957-42.361l-144.762-110.989 271.59-208.229v276.728c10.482-1.081 21.121-1.635 31.889-1.635 17.444 0 34.549 1.454 51.2 4.247v-376.597c0-37.406-32.244-68.578-68.208-68.578h-938.785c-35.964 0-68.208 31.172-68.208 68.578v608.477c0 36.16 29.763 66.085 65.727 67.332l1.24 3.741h649.833zM992.111 39.413l-327.397 248.129-86.81-67.332h-83.089l-85.57 66.085-326.156-246.882h909.021zM353.439 329.936l-270.35 208.229v-416.458l270.35 208.229zM1024 448c141.385 0 256 114.615 256 256s-114.615 256-256 256c-141.385 0-256-114.615-256-256s114.615-256 256-256z" />
<glyph unicode="&#xe902;" glyph-name="magic" data-tags="magic" horiz-adv-x="922" d="M152.598 393.795v-360.985c0-11.457 6.782-26.383 15.148-33.627 0 0 51.614-63.183 251.899-63.183s251.664 63.009 251.664 63.009c8.831 7.046 15.383 22.473 15.383 33.801v360.985c0 0-76.299-28.612-267.047-28.612s-267.047 28.612-267.047 28.612zM489.546 133.146l25.473 76.419 25.473-76.419 76.419-25.473-76.419-25.473-25.473-76.419-25.473 76.419-76.419 25.473 76.419 25.473zM419.645 412.87c-231.764 0-419.645 51.24-419.645 114.449s187.882 114.449 419.645 114.449c231.764 0 419.645-51.24 419.645-114.449s-187.882-114.449-419.645-114.449zM419.645 470.094c189.625 0 343.346 29.89 343.346 66.762s-153.721 66.762-343.346 66.762c-189.625 0-343.346-29.89-343.346-66.762s153.721-66.762 343.346-66.762zM110.435 779.305l-69.266-23.089 69.266-23.089 23.089-69.266 23.089 69.266 69.266 23.089-69.266 23.089-23.089 69.266-23.089-69.266zM481.639 732.373l-42.918-14.306 42.918-14.306 14.306-42.918 14.306 42.918 42.918 14.306-42.918 14.306-14.306 42.918-14.306-42.918zM352.884 555.931l-28.612-9.537 28.612-9.537 9.537-28.612 9.537 28.612 28.612 9.537-28.612 9.537-9.537 28.612-9.537-28.612zM658.080 689.454l-28.612-9.537 28.612-9.537 9.537-28.612 9.537 28.612 28.612 9.537-28.612 9.537-9.537 28.612-9.537-28.612zM311.821 822.475c3.684-20.894 23.46-34.601 44.227-30.94l525.915 92.733c20.898 3.685 34.637 23.451 30.978 44.2-3.684 20.894-23.46 34.601-44.227 30.94l-525.915-92.733c-20.898-3.685-34.637-23.451-30.978-44.2zM330.606 825.787c-1.829 10.375 4.913 20.235 15.528 22.107l93.815 16.542c10.405 1.835 20.31-5.016 22.152-15.463 1.829-10.375-4.913-20.235-15.528-22.107l-93.815-16.542c-10.405-1.835-20.31 5.016-22.152 15.463z" />
<glyph unicode="&#xe903;" glyph-name="rewards" data-tags="rewards" horiz-adv-x="942" d="M389.12 304.64v-242.609l-184.32-85.071v-40.96h532.48v40.96l-184.32 85.071v242.609h102.4v61.417c3.779 2.838 7.49 5.762 11.131 8.768 164.549 93.222 275.589 269.911 275.589 472.535 0 10.31-0.287 20.552-0.855 30.72h-162.985v61.575c0 11.232-9.152 20.345-20.442 20.345h-573.516c-11.28 0-20.442-9.109-20.442-20.345v-61.575h-162.985c-0.567-10.168-0.855-20.41-0.855-30.72 0-202.624 111.040-379.313 275.589-472.535 3.641-3.006 7.352-5.929 11.131-8.768v-61.417h102.4zM170.020 550.229c-61.569 72.909-100.91 165.197-107.572 266.411h101.392v-225.28h0.672c0.921-13.987 2.777-27.718 5.508-41.131zM772.060 550.229c2.731 13.413 4.587 27.144 5.508 41.131h0.672v225.28h101.392c-6.662-101.214-46.003-193.502-107.572-266.411zM646.583 728.848c-0.019-124.333-175.543-219.408-175.543-219.408s-175.524 95.075-175.543 219.408c0 48.495 39.297 87.792 87.771 87.792s87.771-39.297 87.771-87.771l175.543-0.020zM646.583 728.869h-175.543c0 48.475 39.297 87.771 87.771 87.771s87.771-39.297 87.771-87.771v0z" />
<glyph unicode="&#xe904;" glyph-name="sharing" data-tags="sharing" horiz-adv-x="1089" d="M386.083 484.915v88.11h48.060v-88.11h88.11v-48.060h-88.11v-88.11h-48.060v88.11h-88.11v48.060h88.11zM544.681-51.547c0 0 506.195 286.11 542.617 688.597 1.363 11.041 2.064 22.287 2.064 33.697 0 1.689-0.015 3.374-0.046 5.055 0.031 2.258 0.046 4.52 0.046 6.786 0 1.963-0.181 3.769-0.539 5.427-8.908 142.364-127.192 255.073-271.802 255.073-150.409 0-272.34-121.931-272.34-272.34 0 150.409-121.931 272.34-272.34 272.34-143.016 0-260.285-110.239-271.468-250.378-0.579-3.208-0.873-6.58-0.873-10.121 0-2.265 0.015-4.527 0.046-6.786-0.031-1.681-0.046-3.367-0.046-5.055 0-11.41 0.702-22.656 2.064-33.697 36.422-402.487 542.617-688.597 542.617-688.597zM611.965 517.486v48.116c22.322 0.992 37.947 2.48 46.876 4.464 14.22 3.142 25.794 9.425 34.723 18.849 6.118 6.449 10.747 15.046 13.889 25.794 1.819 6.449 2.728 11.244 2.728 14.385h58.781v-308.834h-72.422v197.225h-84.575z" />
<glyph unicode="&#xe905;" glyph-name="image" data-tags="image" d="M512 512l256-320h-512l256 320zM320 576c35.346 0 64 28.654 64 64s-28.654 64-64 64c-35.346 0-64-28.654-64-64s28.654-64 64-64zM128.38 832v0-768c0 0.265-0.114 0.38-0.38 0.38h768c-0.265 0-0.38-0.114-0.38-0.38v768c0-0.265 0.114-0.38 0.38-0.38h-768c0.265 0 0.38 0.114 0.38 0.38v0zM127.62 960h768.76c70.482 0 127.62-57.249 127.62-127.62v-768.76c0-70.482-57.249-127.62-127.62-127.62h-768.76c-70.483 0-127.62 57.249-127.62 127.62v768.76c0 70.483 57.249 127.62 127.62 127.62z" />
<glyph unicode="&#xe906;" glyph-name="eye" data-tags="eye" horiz-adv-x="1463" d="M731.429-37.949c-487.619 0-731.429 487.619-731.429 487.619s243.81 487.619 731.429 487.619c487.619 0 731.429-487.619 731.429-487.619s-243.81-487.619-731.429-487.619zM731.429 205.86c134.652 0 243.81 109.157 243.81 243.81s-109.157 243.81-243.81 243.81c-134.652 0-243.81-109.157-243.81-243.81s109.157-243.81 243.81-243.81z" />
<glyph unicode="&#xe907;" glyph-name="add" data-tags="add" d="M640 320h363.545c11.289 0 20.455 9.186 20.455 20.517v214.966c0 11.406-9.158 20.517-20.455 20.517h-363.545v363.545c0 11.289-9.186 20.455-20.517 20.455h-214.966c-11.406 0-20.517-9.158-20.517-20.455v-363.545h-363.545c-11.289 0-20.455-9.186-20.455-20.517v-214.966c0-11.406 9.158-20.517 20.455-20.517h363.545v-363.545c0-11.289 9.186-20.455 20.517-20.455h214.966c11.406 0 20.517 9.158 20.517 20.455v363.545z" />
<glyph unicode="&#xe908;" glyph-name="check" data-tags="check" horiz-adv-x="1341" d="M587.642-61.207l736.411 877.621-159.567 133.893-616.329-734.513-402.546 337.776-133.893-159.567z" />
<glyph unicode="&#xe909;" glyph-name="close" data-tags="close" horiz-adv-x="1004" d="M613.508 442.453l390.414 390.414-111.547 111.547-390.414-390.414-390.414 390.414-111.547-111.547 390.414-390.414-390.414-390.414 111.547-111.547 390.414 390.414 390.414-390.414 111.547 111.547-390.414 390.414z" />
<glyph unicode="&#xe90a;" glyph-name="text" data-tags="text" horiz-adv-x="1164" d="M0 331.759c0 25.639 20.691 46.423 46.334 46.423h1070.968c25.59 0 46.334-20.84 46.334-46.423v-52.609c0-25.639-20.691-46.423-46.334-46.423h-1070.968c-25.59 0-46.334 20.84-46.334 46.423v52.609zM0 622.668c0 25.639 20.691 46.423 46.334 46.423h1070.968c25.59 0 46.334-20.84 46.334-46.423v-52.609c0-25.639-20.691-46.423-46.334-46.423h-1070.968c-25.59 0-46.334 20.84-46.334 46.423v52.609zM0 913.577c0 25.639 20.691 46.423 46.334 46.423h1070.968c25.59 0 46.334-20.84 46.334-46.423v-52.609c0-25.639-20.691-46.423-46.334-46.423h-1070.968c-25.59 0-46.334 20.84-46.334 46.423v52.609zM0 40.85c0 25.639 20.982 46.423 46.601 46.423h634.072c25.737 0 46.601-20.84 46.601-46.423v-52.609c0-25.639-20.982-46.423-46.601-46.423h-634.072c-25.737 0-46.601 20.84-46.601 46.423v52.609z" />
<glyph unicode="&#xe90b;" glyph-name="plus" data-tags="plus" d="M640 320h255.864c70.887 0 128.136 57.308 128.136 128 0 70.549-57.369 128-128.136 128h-255.864v255.864c0 70.887-57.308 128.136-128 128.136-70.549 0-128-57.369-128-128.136v-255.864h-255.864c-70.887 0-128.136-57.308-128.136-128 0-70.549 57.369-128 128.136-128h255.864v-255.864c0-70.887 57.308-128.136 128-128.136 70.549 0 128 57.369 128 128.136v255.864z" />
<glyph unicode="&#xe90c;" glyph-name="remove" data-tags="remove" d="M976.057 680.201c63.064 63.064 63.681 167.487-0.344 231.512-64.472 64.472-167.677 64.18-231.512 0.344l-232.201-232.201-232.201 232.201c-63.064 63.064-167.487 63.681-231.512-0.344-64.472-64.472-64.18-167.677-0.344-231.512l232.201-232.201-232.201-232.201c-63.064-63.064-63.681-167.487 0.344-231.512 64.472-64.472 167.677-64.18 231.512-0.344l232.201 232.201 232.201-232.201c63.064-63.064 167.487-63.681 231.512 0.344 64.472 64.472 64.18 167.677 0.344 231.512l-232.201 232.201 232.201 232.201z" />
<glyph unicode="&#xe90d;" glyph-name="burger" data-tags="burger" d="M0 796.16h1024v-136.533h-1024v136.533zM0 523.093h1024v-136.533h-1024v136.533zM0 250.027h1024v-136.533h-1024v136.533z" />
<glyph unicode="&#xe90e;" glyph-name="arrow" data-tags="arrow" d="M0 267.678l115.228-109.703 396.715 377.693 396.828-377.801 115.228 109.703-512.189 487.63z" />
<glyph unicode="&#xe90f;" glyph-name="arrow-up" data-tags="arrow-up" d="M512 714.24l-512-512h1024z" />
<glyph unicode="&#xe910;" glyph-name="arrow-down" data-tags="arrow-down" d="M512 181.76l512 512h-1024z" />
<glyph unicode="&#xe911;" glyph-name="mail" data-tags="mail" horiz-adv-x="1463" d="M1462.857 35.443c0-50.893-43.869-93.304-92.799-93.304h-1277.258c-48.931 0-92.799 42.411-92.799 93.304v827.86c0 49.197 40.494 89.911 89.425 91.607l1.687 5.089h1277.258l1.687-5.089c50.618 0 92.799-40.714 92.799-91.607v-827.86zM1349.811 167.765v566.609l-369.511-283.305 369.511-283.305zM1349.811 846.339h-1236.764c205.846-156.072 411.692-312.144 617.538-469.913 205.846 157.768 411.692 313.84 619.226 469.913zM1349.811 55.8l-445.437 337.591-118.108-91.607h-113.047l-116.421 89.911-443.75-335.894h1236.764zM480.87 451.069l-367.823 283.305v-566.609l367.823 283.305z" />
<glyph unicode="&#xe912;" glyph-name="trash" data-tags="trash" horiz-adv-x="894" d="M27.983 913.455c0 0-23.329 0-23.329-46.545s23.329-46.545 23.329-46.545h837.706c0 0 23.329 0 23.329 46.545s-23.329 46.545-23.329 46.545h-837.706zM49.978 773.818h791.273l-93.091-837.818h-605.091l-93.091 837.818zM375.797 960c-46.545 0-46.545-46.545-46.545-46.545h232.727c0 0 0 46.545-46.545 46.545h-139.636zM282.706 29.091h46.545l-46.545 746.455h-46.545l46.545-746.455zM608.524 775.545l-46.545-746.455h46.545l46.545 746.455h-46.545zM422.342 775.545v-746.455h46.545v746.455h-46.545z" />
<glyph unicode="&#xe913;" glyph-name="edit" data-tags="edit" d="M984.709 650.18l-45.074-45.106-270.507 270.475 45.074 45.106c49.805 49.805 130.552 49.805 180.357 0l90.148-90.18c49.744-49.776 49.744-130.49 0.002-180.296zM353.549 109.261c-12.451-12.451-12.451-32.623 0-45.074 12.451-12.513 32.623-12.513 45.074 0l495.939 495.813-45.136 45.106-495.877-495.845zM128.118 334.631c-12.451-12.451-12.451-32.623 0-45.074s32.623-12.451 45.074 0l495.937 495.845-45.074 45.074-495.937-495.845zM714.14 740.358l-495.875-495.875c-24.903-24.841-24.841-65.245 0-90.148 24.903-24.903 65.245-25.028 90.21 0.062l495.875 495.781-90.21 90.18zM308.352 19.237c-15.252 15.252-22.6 34.615-25.339 54.537-6.475-0.996-13.011-1.93-19.673-1.93-34.055 0-66.054 13.324-90.148 37.416-24.094 24.156-37.354 56.093-37.354 90.148 0 6.226 0.934 12.264 1.805 18.304-20.608 2.801-39.657 11.83-54.599 26.771-1.432 1.432-1.93 3.363-3.237 4.919l-77.822-311.41 310.599 77.758c-1.369 1.245-2.925 2.179-4.231 3.486z" />
<glyph unicode="&#xe914;" glyph-name="warning" data-tags="warning" horiz-adv-x="246" d="M119.587-64c-61.472 0-111.304 49.833-111.304 111.304s49.833 111.304 111.304 111.304c61.472 0 111.304-49.833 111.304-111.304s-49.833-111.304-111.304-111.304zM117.989 292.174c109.706 0 198.75 667.826 0 667.826s-109.706-667.826 0-667.826z" />
<glyph unicode="&#xe915;" glyph-name="trash2" data-tags="trash2" horiz-adv-x="800" d="M545.455 741.818h-545.455v40.616c0 17.734 14.225 32.111 31.855 32.111h162.379c29.952 84.741 110.769 145.455 205.767 145.455s175.815-60.713 205.767-145.455h162.379c17.593 0 31.855-14.369 31.855-32.111v-40.616h-254.545zM525.995 814.545c-25.15 43.476-72.157 72.727-125.995 72.727s-100.846-29.251-125.995-72.727h251.991zM36.364 669.091h727.273v-711.406c0-8.763-7.198-15.866-15.866-15.866h-695.54c-8.763 0-15.866 7.198-15.866 15.866v711.406zM109.091 596.364v-581.818h581.818v581.818h-581.818zM181.818 507.588c0 8.863 7.239 16.048 16.141 16.048h40.446c8.914 0 16.141-7.21 16.141-16.048v-404.268c0-8.863-7.239-16.048-16.141-16.048h-40.446c-8.914 0-16.141 7.21-16.141 16.048v404.268zM545.455 507.588c0 8.863 7.239 16.048 16.141 16.048h40.446c8.914 0 16.141-7.21 16.141-16.048v-404.268c0-8.863-7.239-16.048-16.141-16.048h-40.446c-8.914 0-16.141 7.21-16.141 16.048v404.268zM363.636 507.588c0 8.863 7.239 16.048 16.141 16.048h40.446c8.914 0 16.141-7.21 16.141-16.048v-404.268c0-8.863-7.239-16.048-16.141-16.048h-40.446c-8.914 0-16.141 7.21-16.141 16.048v404.268z" />
<glyph unicode="&#xe916;" glyph-name="facebook" data-tags="facebook" horiz-adv-x="471" d="M107.789-64v538.947h-107.789v161.684h107.789v107.789c0 142.713 52.925 215.579 215.579 215.579h134.737v-161.684h-80.842c-63.596 0-80.842-35.247-80.842-80.842v-80.842h161.684l-26.947-161.684h-134.737v-538.947h-188.632z" />
<glyph unicode="&#xe917;" glyph-name="google" data-tags="google" horiz-adv-x="1600" d="M1.35 477.25c4.376 261.795 245.053 491.058 506.848 482.324 125.441 5.828 243.359-48.755 339.432-125.424-41.007-46.593-83.466-91.473-128.831-133.449-115.496 79.817-279.747 102.629-395.244 10.429-165.22-114.268-172.743-384.071-13.819-507.073 154.548-140.245 446.662-70.616 489.363 144.12-96.8 1.453-193.86 0-290.66 3.148-0.242 57.748-0.484 115.496-0.242 173.227 161.83 0.484 323.659 0.744 485.731-0.484 9.703-135.87-8.25-280.474-91.716-392.805-126.409-177.845-380.18-229.765-578.173-153.58-198.703 75.7-339.432 285.576-322.691 499.567zM1309.582 670.383h144.362c0.242-48.288 0.484-96.818 0.969-145.088 48.288-0.502 96.818-0.502 145.088-0.986v-144.362c-48.27-0.484-96.558-0.726-145.088-1.211-0.484-48.513-0.726-96.8-0.969-145.088h-144.604c-0.484 48.288-0.484 96.576-0.969 144.846-48.288 0.484-96.8 0.969-145.088 1.453v144.362c48.288 0.484 96.558 0.726 145.088 0.986 0.242 48.513 0.726 96.8 1.211 145.088z" />
<glyph unicode="&#xe918;" glyph-name="pinterest" data-tags="pinterest" horiz-adv-x="799" d="M423.759 960c-280.523 0-422.121-200.024-422.121-368.019 0-100.467 38.116-190.068 119.753-223.747 14.336-6.087 25.771 0 30.891 14.45 1.934 9.899 8.135 36.58 10.297 46.934 3.925 14.848 2.105 20.139-8.306 33.508-22.585 27.364-39.083 63.261-39.083 114.917 0 149.051 111.333 281.604 290.763 281.604 156.845 0 244.398-96.485 244.398-225.453 0-169.588-75.436-312.893-186.769-312.893-61.839 0-107.066 51.087-92.673 113.495 18.489 74.298 52.566 155.081 52.566 208.785 0 47.958-25.771 88.805-79.304 88.805-63.147 0-113.495-65.252-113.495-152.18 0-56.264 18.489-94.039 18.489-94.039s-64.854-271.989-76.232-320.402c-22.642-94.949-3.129-210.947-2.048-223.235 2.048-6.827 10.183-8.704 14.393-3.698 6.087 7.851 80.442 100.751 107.18 192.401 6.258 26.852 41.245 161.737 41.245 161.737 20.708-38.685 80.499-73.046 142.338-73.046 189.727-0.057 317.501 167.426 317.501 398.739 0 174.082-146.092 341.338-369.782 341.338v0z" />
<glyph unicode="&#xe919;" glyph-name="reddit" data-tags="reddit" horiz-adv-x="1191" d="M541.809 654.333l139.050 283.663 218.15-44.503c13.885 38.804 50.39 66.506 93.238 66.506 54.8 0 99.225-45.313 99.225-101.209s-44.424-101.209-99.225-101.209c-49.688 0-90.845 37.252-98.092 85.869l-187.179 40.643-109.328-227.725c118.733-0.385 227.613-30.549 312.745-80.571 25.021 47.939 74.507 80.574 131.466 80.574 82.201 0 148.837-67.969 148.837-151.814 0-68.52-44.504-126.437-105.636-145.32 4.219-18.588 6.411-37.66 6.411-57.098 0-195.637-222.122-354.233-496.124-354.233s-496.124 158.595-496.124 354.233c0 19.438 2.193 38.511 6.411 57.098-61.133 18.883-105.636 76.8-105.636 145.32 0 83.845 66.637 151.814 148.837 151.814 56.959 0 106.445-32.636 131.466-80.574 72.725 42.732 162.782 70.972 261.506 78.536zM431.097 101.531c41.775-17.044 96.062-27.112 164.252-27.112s122.476 10.068 164.252 27.112c26.415 10.778 43.191 22.185 51.739 30.903l-35.081 35.783c-3.855-3.933-14.987-11.502-35.083-19.701-35.744-14.584-83.783-23.493-145.826-23.493s-110.082 8.909-145.826 23.493c-20.096 8.199-31.228 15.769-35.083 19.701l-35.081-35.783c8.548-8.719 25.323-20.126 51.739-30.903zM421.705 302.14c41.1 0 74.419 33.985 74.419 75.907s-33.318 75.907-74.419 75.907c-41.1 0-74.419-33.985-74.419-75.907s33.318-75.907 74.419-75.907zM768.992 302.14c41.1 0 74.419 33.985 74.419 75.907s-33.318 75.907-74.419 75.907c-41.1 0-74.419-33.985-74.419-75.907s33.318-75.907 74.419-75.907z" />
<glyph unicode="&#xe91a;" glyph-name="linkedin" data-tags="linkedin" horiz-adv-x="983" d="M202.923-64h-196.85v677.212h196.85v-677.212zM202.923 853.254c0-59.287-39.158-106.764-102.056-106.764h-1.173c-60.536 0-99.695 47.477-99.695 106.764 0 60.603 40.331 106.746 102.056 106.746 61.709 0 99.695-46.143 100.867-106.746zM524.072-64h-197.855c0 0 2.846 616.467 0 681.299h197.836l-1.423-90.574c28.4 47.147 79.547 116.415 196.070 116.415 142.116 0 248.659-98.751 248.659-310.972v-396.167h-198.178v385.843c0 92.862-49.019 140.029-127.182 140.029-59.665 0-95.199-42.731-110.812-84.010-5.711-14.721-7.114-35.37-7.114-56.020v-385.843z" />
<glyph unicode="&#xe91b;" glyph-name="kontakte" data-tags="kontakte" horiz-adv-x="1707" d="M1697.615 34.398c-2.067 4.601-3.993 8.418-5.783 11.476-29.611 55.097-86.196 122.726-169.721 202.904l-2.649 2.736c-39.698 38.258-63.703 63.361-73.756 76.214-18.394 24.483-22.514 49.264-12.462 74.374 7.102 18.971 33.781 59.036 79.974 120.25 24.298 32.441 43.541 58.441 57.752 78.030 102.492 140.774 146.926 230.731 133.294 269.905l-5.294 9.154c-3.557 5.511-12.739 10.553-27.532 15.151-14.827 4.589-33.778 5.347-56.887 2.289l-255.907-1.826c-4.146 1.518-10.065 1.376-17.778-0.463-7.703-1.839-11.556-2.762-11.556-2.762l-4.454-2.299-3.536-2.762c-2.963-1.826-6.222-5.039-9.779-9.63-3.539-4.576-6.499-9.946-8.864-16.065-27.861-74.056-59.539-142.909-95.091-206.557-21.92-37.952-42.050-70.844-60.435-98.693-18.36-27.84-33.762-48.351-46.193-61.499-12.449-13.161-23.685-23.705-33.775-31.669-10.075-7.968-17.765-11.335-23.090-10.103-5.338 1.232-10.364 2.453-15.123 3.675-8.288 5.511-14.955 13.007-19.981 22.492-5.048 9.486-8.447 21.425-10.224 35.808-1.768 14.393-2.814 26.772-3.112 37.181-0.277 10.396-0.149 25.1 0.451 44.071 0.616 18.981 0.893 31.824 0.893 38.557 0 23.261 0.439 48.506 1.32 75.741 0.896 27.235 1.622 48.814 2.228 64.712 0.604 15.913 0.884 32.75 0.884 50.499s-1.046 31.669-3.112 41.772c-2.042 10.090-5.176 19.885-9.306 29.38-4.155 9.486-10.236 16.823-18.216 22.033-7.996 5.203-17.936 9.331-29.766 12.399-31.4 7.341-71.384 11.312-119.97 11.929-110.179 1.222-180.975-6.129-212.372-22.042-12.44-6.724-23.697-15.91-33.762-27.531-10.666-13.47-12.154-20.82-4.454-22.029 35.549-5.502 60.715-18.663 75.527-39.47l5.338-11.026c4.152-7.955 8.297-22.039 12.446-42.232 4.142-20.193 6.816-42.531 7.992-67.001 2.957-44.686 2.957-82.937 0-114.758-2.966-31.833-5.767-56.615-8.441-74.365s-6.67-32.132-11.998-43.145c-5.338-11.016-8.889-17.749-10.669-20.193-1.777-2.444-3.259-3.984-4.435-4.589-7.7-3.048-15.708-4.601-23.996-4.601-8.301 0-18.366 4.289-30.211 12.862-11.842 8.572-24.133 20.348-36.872 35.345-12.739 15-27.105 35.962-43.106 62.889-15.988 26.926-32.577 58.75-49.757 95.471l-14.214 26.631c-8.886 17.132-21.024 42.078-36.427 74.815-15.412 32.75-29.035 64.429-40.877 95.031-4.734 12.852-11.845 22.637-21.322 29.37l-4.447 2.762c-2.957 2.444-7.703 5.039-14.214 7.804-6.52 2.762-13.324 4.743-20.439 5.962l-243.473-1.826c-24.88 0-41.761-5.823-50.65-17.454l-3.557-5.502c-1.777-3.064-2.673-7.958-2.673-14.695 0-6.733 1.777-14.997 5.335-24.782 35.543-86.304 74.194-169.537 115.956-249.712s78.051-144.758 108.847-193.691c30.803-48.969 62.2-95.185 94.191-138.626 31.991-43.457 53.168-71.307 63.529-83.542 10.373-12.257 18.521-21.422 24.444-27.541l22.219-22.029c14.217-14.692 35.094-32.287 62.642-52.785 27.553-20.512 58.057-40.705 91.527-60.612 33.476-19.875 72.42-36.094 116.855-48.637 44.428-12.556 87.671-17.595 129.734-15.164h102.19c20.725 1.849 36.427 8.582 47.099 20.203l3.536 4.601c2.378 3.653 4.603 9.328 6.657 16.965 2.079 7.65 3.112 16.077 3.112 25.245-0.607 26.312 1.332 50.027 5.764 71.139 4.429 21.106 9.477 37.020 15.123 47.737 5.643 10.708 12.010 19.743 19.097 27.068 7.102 7.341 12.163 11.788 15.132 13.319 2.95 1.54 5.306 2.585 7.084 3.212 14.217 4.894 30.949 0.154 50.22-14.241 19.256-14.383 37.317-32.142 54.21-53.248 16.884-21.126 37.17-44.827 60.861-71.139 23.707-26.322 44.435-45.888 62.2-58.76l17.765-11.016c11.864-7.351 27.267-14.084 46.227-20.203 18.926-6.116 35.508-7.646 49.747-4.589l227.47 3.666c22.499 0 40.006 3.849 52.424 11.486 12.443 7.65 19.835 16.077 22.219 25.245 2.378 9.177 2.505 19.589 0.451 31.229-2.107 11.611-4.183 19.73-6.25 24.319z" />
<glyph unicode="&#xe91c;" glyph-name="twitter" data-tags="twitter" horiz-adv-x="1249" d="M1248.805 831.933c-45.914-20.202-95.28-33.719-147.218-39.743 52.966 31.148 93.664 80.661 112.617 139.431-49.587-28.797-104.243-50.028-162.718-61.047-46.501 48.926-113.058 79.486-186.74 79.486-141.635 0-256.309-112.764-256.309-252.415 0-19.541 2.13-38.714 6.538-57.227-212.966 10.505-401.764 111.075-528.192 263.729-21.818-37.466-34.601-80.808-34.601-127.016 0-87.493 45.179-164.849 114.086-209.881-42.167 1.249-81.543 12.562-116.070 31.368-0.367-0.955-0.367-2.13-0.367-3.306 0-122.241 88.595-223.986 205.841-247.2-21.524-5.73-44.077-8.889-67.438-8.889-16.676 0-25.932 5.436-41.286 8.448 32.544-100.276 108.283-166.832 220.386-169.036-87.346-67.585-173.591-110.193-293.848-110.193-20.643 0-53.554-2.277-73.462 0 113.278-71.552 247.861-117.613 392.801-117.613 471.112 0 728.89 384.353 728.89 717.724 0 11.019-0.073 21.818-0.661 32.544 49.954 35.703 93.37 80.221 127.75 130.836v0z" />
</font>
</defs>
</svg>
